<?xml version="1.0" standalone="no"?>
<!DOCTYPE svg PUBLIC "-//W3C//DTD SVG 1.1//EN" "http://www.w3.org/Graphics/SVG/1.1/DTD/svg11.dtd" >
<svg xmlns="http://www.w3.org/2000/svg">
<metadata>Generated by IcoMoon</metadata>
<defs>
<font id="ico-digisalad" horiz-adv-x="1024">
<font-face units-per-em="1024" ascent="960" descent="-64" />
<missing-glyph horiz-adv-x="1024" />
<glyph unicode="&#x20;" horiz-adv-x="512" d="" />
<glyph unicode="&#xe900;" glyph-name="arrow-left" d="M329.997 411.063c-13.33 13.333-13.33 34.944 0 48.273l298.666 298.667c13.329 13.33 34.944 13.33 48.273 0s13.329-34.942 0-48.272l-274.531-274.532 274.531-274.53c13.329-13.329 13.329-34.94 0-48.273-13.329-13.329-34.944-13.329-48.273 0l-298.666 298.667z" />
<glyph unicode="&#xe901;" glyph-name="arrow-right" d="M676.941 459.337c13.329-13.329 13.329-34.944 0-48.273l-298.668-298.667c-13.33-13.329-34.942-13.329-48.272 0s-13.33 34.944 0 48.273l274.53 274.53-274.53 274.531c-13.33 13.329-13.33 34.942 0 48.272s34.942 13.33 48.272 0l298.668-298.666z" />
<glyph unicode="&#xe902;" glyph-name="clock" d="M512 21.333c-235.361 0-426.667 191.305-426.667 426.667s191.305 426.667 426.667 426.667c235.362 0 426.667-191.305 426.667-426.667s-191.305-426.667-426.667-426.667zM512 815.132c-202.419 0-367.132-164.713-367.132-367.132s164.713-367.134 367.132-367.134c202.419 0 367.134 164.715 367.134 367.134s-164.715 367.132-367.134 367.132zM591.377 338.85c-7.543 0-15.083 2.782-21.035 8.734l-79.381 79.381c-5.555 5.555-8.734 13.094-8.734 21.035v158.758c0 16.273 13.495 29.768 29.769 29.768s29.769-13.495 29.769-29.768v-146.458l70.647-70.647c11.511-11.507 11.511-30.558 0-42.069-5.952-5.952-13.495-8.734-21.035-8.734z" />
<glyph unicode="&#xe903;" glyph-name="close" d="M792.145 728.138c13.329-13.33 13.329-34.942 0-48.272l-512.001-511.998c-13.33-13.333-34.942-13.333-48.272 0-13.33 13.329-13.33 34.94 0 48.269l512 512.001c13.329 13.33 34.944 13.33 48.273 0zM231.872 728.138c13.33 13.33 34.942 13.33 48.272 0l512.001-512.001c13.329-13.329 13.329-34.94 0-48.269-13.329-13.333-34.944-13.333-48.273 0l-512 511.998c-13.33 13.33-13.33 34.942 0 48.272z" />
<glyph unicode="&#xe904;" glyph-name="down" d="M511.949 115.191c-18.85 0-34.133 15.283-34.133 34.133v597.335c0 18.851 15.283 34.133 34.133 34.133 18.854 0 34.133-15.282 34.133-34.133v-597.335c0-18.85-15.279-34.133-34.133-34.133zM536.107 125.188c-13.329-13.329-34.94-13.329-48.273 0l-298.665 298.667c-13.33 13.333-13.33 34.944 0 48.273s34.942 13.329 48.272 0l274.53-274.53 274.53 274.53c13.333 13.329 34.944 13.329 48.273 0s13.329-34.94 0-48.273l-298.667-298.667z" />
<glyph unicode="&#xe905;" glyph-name="location" d="M617.856 21.333h-212.092c-125.929 0-189.088 0-220.278 46.835-3.119 4.365-5.458 9.126-7.798 13.888-20.663 45.248 5.848 92.083 40.157 144.077 8.967 13.892 27.291 17.463 40.547 8.333 13.256-9.126 17.155-27.78 8.187-41.276-31.579-48.026-41.716-73.028-35.868-86.127 0.78-1.984 1.949-3.968 3.119-5.952 13.646-20.642 76.415-20.642 171.934-20.642h212.092c95.125 0 158.285 0 171.934 20.642 1.169 1.984 2.338 3.571 3.119 5.952 5.845 13.099-4.292 38.101-35.87 86.127-8.969 13.495-5.457 32.149 8.188 41.276 13.257 9.131 31.578 5.559 40.546-8.333 34.308-51.994 60.821-99.226 40.158-144.077-2.338-4.762-4.681-9.523-7.799-13.888-31.189-47.232-94.349-47.232-220.275-47.232v0.397zM511.808 398.387c-80.704 0-146.204 66.679-146.204 148.838s65.5 148.837 146.204 148.837c80.704 0 146.202-66.679 146.202-148.837s-65.498-148.838-146.202-148.838zM511.808 636.528c-48.346 0-87.723-40.087-87.723-89.303s39.377-89.301 87.723-89.301c48.341 0 87.718 40.085 87.718 89.301s-39.377 89.303-87.718 89.303zM511.812 140.403c-15.595 0-31.189 4.365-44.834 12.305-119.303 76.599-276.812 200.034-276.812 391.341 0 179.002 147.372 330.617 321.646 330.617 174.272 0 321.643-151.616 321.643-331.014 0-144.869-90.449-272.668-276.028-390.548-14.426-8.337-30.020-12.702-45.615-12.702zM511.812 815.132c-142.694 0-263.165-124.23-263.165-271.479 0-161.539 141.914-271.478 248.739-340.141 7.407-4.369 20.663-4.766 30.020 0.794 166.477 105.574 247.569 217.101 247.569 339.744 0 147.25-120.469 271.479-263.164 271.479v-0.397z" />
<glyph unicode="&#xe906;" glyph-name="logout" d="M433.98 64.009c-3.119 0-6.63 0.393-9.751 1.574l-25.746 9.058c-106.496 37.811-159.549 56.713-193.877 105.549-33.938 48.444-33.938 105.553-33.938 219.375v96.098c0 113.821 0 170.929 33.938 219.372 33.938 49.231 87.381 68.135 193.877 105.945l25.746 9.058c15.212 5.514 31.989-2.757 37.45-18.117s-2.731-32.295-17.946-37.809l-25.746-9.059c-94.793-33.871-141.995-50.806-165.4-83.889s-23.406-84.283-23.406-185.501v-96.098c0-101.218 0-152.026 23.406-185.502 23.406-33.084 70.607-50.018 165.4-83.891l25.746-9.058c15.215-5.513 23.407-22.447 17.946-37.807-4.292-12.211-15.603-19.695-27.699-19.695v0.397zM726.558 320c-7.804 0-15.215 3.149-21.065 9.058-11.315 11.814-10.923 30.327 0.388 41.745 5.854 5.517 15.996 13.786 28.087 23.633 7.411 5.909 18.726 14.571 29.649 24.026h-329.63c-15.996 0-29.259 13.389-29.259 29.538 0 16.145 13.263 29.538 29.259 29.538h330.018c-10.923 9.451-22.626 18.509-29.645 24.418-12.096 9.451-22.238 17.724-28.087 23.629-11.703 11.423-11.703 29.934-0.781 41.749 11.311 11.815 29.645 11.815 41.348 0.788 4.681-4.726 13.653-11.421 23.407-19.299 48.371-38.598 83.089-68.137 83.089-100.431s-34.325-61.833-82.701-100.036c-10.142-7.876-18.722-14.571-23.403-19.298-5.854-5.513-12.873-8.273-20.288-8.273l-0.388-0.785z" />
<glyph unicode="&#xe907;" glyph-name="music-note" d="M876.873 873.429c2.82 0.789 5.79 1.238 8.87 1.238 17.882 0 32.38-14.243 32.38-31.815v-531.859c0-87.714-72.631-159.074-161.911-159.074-89.276 0-161.907 71.36-161.907 159.074s72.631 159.074 161.907 159.074c36.425 0 70.067-11.883 97.148-31.898v183.676l-401.536-112.452v-328.986c0-87.714-72.635-159.074-161.912-159.074s-161.911 71.36-161.911 159.074c0 87.714 72.633 159.074 161.911 159.074 36.423 0 70.065-11.883 97.146-31.902v404.684c0 14.543 9.944 26.779 23.509 30.574l-0.003 0.022 93.010 26.047c17.207 4.807 35.115-4.979 40.017-21.876s-5.065-34.5-22.263-39.317l-69.504-19.465v-112.689l401.536 112.45v112.689l-51.75-14.488c-2.965-0.827-5.956-1.225-8.892-1.225-14.097 0-27.068 9.115-31.125 23.101-4.902 16.897 5.069 34.5 22.268 39.317l93.013 26.025zM192.764 180.407c0-52.629 43.58-95.445 97.146-95.445s97.146 42.816 97.146 95.445c0 52.629-43.58 95.445-97.146 95.445s-97.146-42.816-97.146-95.445zM659.068 310.993c0-52.629 43.58-95.445 97.143-95.445 53.568 0 97.148 42.816 97.148 95.445s-43.58 95.445-97.148 95.445c-53.564 0-97.143-42.816-97.143-95.445zM687.616 757.467c-5.879-5.878-14.033-9.26-22.345-9.26s-16.465 3.382-22.345 9.26c-5.879 5.879-9.259 14.033-9.259 22.345 0 8.343 3.379 16.466 9.259 22.376 5.879 5.879 14.033 9.229 22.345 9.229s16.465-3.35 22.345-9.229c5.879-5.91 9.259-14.033 9.259-22.376 0-8.312-3.379-16.466-9.259-22.345z" />
<glyph unicode="&#xe908;" glyph-name="notify" d="M811.127 287.74c-23.492 0-36.497 12.070-44.049 39.962-7.552 28.723-7.97 70.349-8.393 114.47 0 53.282 0.841 69.931-5.871 126.127-1.677 6.244-7.97 10.406-14.686 8.742-6.293-1.665-10.487-7.909-8.811-14.569 5.875-57.443 5.035-68.681 5.457-120.713 0-45.79 0.418-88.666 9.229-120.303 3.776-13.734 8.811-24.973 15.94-34.133h-501.342c6.712 8.742 12.166 19.981 15.942 34.133 8.39 31.637 8.81 74.927 9.23 120.303 0.419 69.513 0.839 148.603 29.787 208.961 32.304 67.85 96.493 101.151 196.343 101.151 54.537 0 99.43-10.406 132.992-30.387 28.945-17.483 50.342-42.458 65.446-75.759 2.517-5.827 9.651-8.742 15.945-6.244 5.871 2.498 8.806 9.574 6.289 15.818-16.781 37.88-41.95 67.018-75.093 86.582-20.979 12.488-45.73 21.646-74.257 27.473-2.94 36.631-18.88 94.491-71.322 94.491s-68.804-57.86-71.322-94.491c-26.851-5.411-50.764-13.737-71.322-25.392-32.724-18.732-58.315-46.621-75.516-82.836-31.046-65.353-31.465-146.941-31.884-219.367 0-44.126-0.42-85.751-8.391-114.475-7.552-27.887-20.557-39.962-44.051-39.962-39.017 0-70.482-31.219-70.482-69.931s31.465-69.931 70.482-69.931h47.407c6.713 0 12.166 5.41 12.166 12.070s-5.454 12.070-12.166 12.070h-47.407c-25.591 0-46.569 20.817-46.569 46.208s20.977 46.204 46.569 46.204h604.131c25.591 0 46.566-20.813 46.566-46.204s-20.975-46.208-46.566-46.208h-480.368c-6.713 0-12.166-5.41-12.166-12.070s5.454-12.070 12.166-12.070h49.505c6.293-64.939 61.25-116.139 128.378-116.139s122.505 51.2 128.38 116.139h173.683c39.019 0 70.485 31.219 70.485 69.931s-31.467 69.931-70.485 69.931v0.418zM509.065 840.533c38.178 0 42.372-44.956 46.566-66.602-14.682 1.665-30.204 2.498-46.566 2.498s-31.885-0.832-46.566-2.498c4.194 21.646 8.388 66.602 46.566 66.602zM509.065 55.467c-53.7 0-98.171 40.375-104.464 92.412h208.506c-5.871-52.036-50.342-92.412-104.461-92.412h0.418zM509.056 21.333c-67.964 0-126.7 50.368-137.607 116.139h-40.276c-12.586 0-22.655 9.988-22.655 22.477s10.069 22.477 22.655 22.477h479.946c19.721 0 36.083 15.817 36.083 35.797s-15.945 35.802-36.083 35.802h-604.128c-19.718 0-36.080-15.821-36.080-35.802s15.942-35.797 36.080-35.797h47.407c12.586 0 22.655-9.988 22.655-22.477s-10.069-22.477-22.655-22.477h-47.407c-44.471 0-80.97 36.211-80.97 80.337 0 44.122 36.5 80.337 80.97 80.337 15.523 0 26.85 5.41 33.982 32.469 7.552 27.473 7.552 68.267 7.971 111.974 0.419 73.259 0.839 156.096 33.143 223.531 18.040 37.879 44.89 67.434 79.712 87.415 19.299 11.239 41.534 19.564 66.706 24.975 5.453 47.87 29.367 96.156 80.969 96.156 51.605 0 75.516-48.286 80.973-96.156 26.428-5.827 49.924-14.985 69.641-27.057 34.82-20.813 61.67-51.616 79.292-91.578 5.035-11.239 0-24.559-11.746-29.554-11.328-4.995-24.751 0-29.786 11.239-13.845 31.636-33.984 54.946-61.252 71.18-31.885 19.148-75.098 28.722-127.539 28.722-95.235 0-156.067-31.22-186.693-95.324-27.689-58.276-28.109-136.115-28.528-204.8 0-46.204-0.419-89.911-9.23-123.213-2.098-7.492-4.615-14.571-7.552-20.813h464.425c-2.935 6.242-5.453 13.321-7.552 20.813-8.811 32.883-9.229 76.591-9.229 122.795v19.567c0 36.215 0 51.2-5.035 100.318-2.517 10.406 4.612 22.478 16.781 25.392 5.875 1.249 11.746 0.416 17.199-2.497 5.035-2.914 8.811-7.909 10.069-13.737 6.293-49.952 6.293-69.1 6.293-106.98v-21.645c0-43.708 0.841-84.501 7.97-111.974 7.134-27.055 18.462-32.469 33.984-32.469 44.471 0 80.969-36.211 80.969-80.337 0-44.122-36.497-80.337-80.969-80.337h-164.459c-10.906-65.771-69.641-116.139-137.604-116.139l-0.841 1.25zM331.173 161.195v-2.91h59.154l0.839-9.574c5.454-59.942 57.478-106.564 117.889-106.564s112.435 47.036 117.888 106.564l0.841 9.574h183.334c33.143 0 59.994 26.637 59.994 59.524 0 32.883-26.85 59.524-59.994 59.524-36.915 0-48.666 27.473-54.118 47.872-7.97 29.969-8.388 72.013-8.388 116.553v22.059c0 37.047 0 55.778-5.875 102.401l-2.517-2.497c5.035-49.95 5.035-65.353 5.453-102.4v-19.149c0-45.372 0.841-87.415 8.811-117.803 3.358-12.484 7.97-22.477 13.845-30.387l13.005-16.649h-544.136l13.005 16.649c5.873 7.91 10.489 17.903 13.845 30.387 7.971 30.387 8.39 72.849 8.81 117.803 0.419 70.767 0.839 151.103 30.626 213.542 34.402 72.013 101.527 106.979 205.572 106.979 56.636 0 103.206-10.823 138.445-31.636 31.049-18.732 53.7-44.956 69.645-80.755l12.587 5.411-9.651-4.163c-15.94 35.799-39.437 63.272-70.899 82.003-20.139 12.072-43.631 20.813-70.903 25.808l-7.97 1.665v7.909c-2.099 19.98-10.91 84.917-61.67 84.917-50.765 0-59.575-64.937-60.834-84.917v-7.909l-8.393-1.665c-26.009-4.995-48.664-13.32-67.962-24.559-31.046-17.899-54.959-44.123-71.321-78.257-30.206-63.272-30.626-143.608-31.046-214.789 0-44.54-0.419-87.002-8.39-116.971-5.454-20.399-17.201-47.872-54.12-47.872-33.143 0-59.994-26.637-59.994-59.524 0-32.883 26.85-59.524 59.994-59.524h47.407v2.914h-47.407c-31.465 0-57.057 25.391-57.057 56.61s25.592 56.614 57.057 56.614h604.129c31.467 0 57.058-25.395 57.058-56.614s-25.591-56.61-57.058-56.61l-479.528 0.414zM509.056 45.060c-58.735 0-108.24 43.708-114.533 101.568l-1.259 11.657h232.003l-1.259-11.657c-6.711-57.86-55.799-101.568-114.534-101.568h-0.418zM417.178 137.472c10.069-41.63 47.825-71.599 91.878-71.599 44.049 0 81.391 29.969 91.878 71.599h-183.756zM569.050 761.86l-14.263 1.665c-29.367 3.33-62.093 3.33-91.038 0l-14.268-1.665 4.198 20.813c4.194 23.727 12.582 68.267 55.795 68.267s51.183-44.54 55.799-68.267l4.194-20.813h-0.418zM509.056 786.836c11.328 0 22.656-0.416 33.984-1.248-5.035 24.975-11.75 44.54-33.984 44.54s-28.949-20.397-33.984-44.54c10.91 0.832 22.238 1.248 33.984 1.248zM731.405 760.614c0 0 21.815-12.072 42.79-40.378 28.109-37.879 42.377-84.917 42.377-140.279 0-6.66 5.453-12.072 12.164-12.072s12.169 5.411 12.169 12.072c0 76.175-26.014 126.543-48.247 155.681-24.333 31.636-48.666 45.372-49.506 45.789-5.875 3.33-13.005 1.249-16.363-4.579-3.354-5.827-1.259-12.904 4.617-16.234zM828.745 557.893c-12.582 0-22.652 9.99-22.652 22.478 0 52.865-13.427 97.821-40.277 134.036-19.298 25.808-38.596 37.047-39.437 37.463-10.906 6.244-14.682 19.564-8.811 30.387 5.875 10.823 19.721 14.569 30.626 8.742 0.841-0.416 26.85-14.569 52.864-48.703 23.074-30.387 50.342-82.836 50.342-161.925 0-12.488-10.069-22.478-22.656-22.478zM736.448 769.77c0 0 23.915-13.737 46.148-43.291 29.79-39.545 44.471-88.663 44.471-146.523h2.935c0 73.262-25.169 121.548-46.148 149.437-23.074 29.97-45.73 42.874-46.148 42.874l-1.677-2.497h0.418zM856.849 756.031c0 0 47.407-31.636 47.407-107.811 0-6.66 5.453-12.071 12.169-12.071 6.711 0 12.164 5.411 12.164 12.071 0 89.912-56.218 126.543-58.317 127.792-5.453 3.33-13.005 2.081-16.358-3.746-3.776-5.411-2.099-12.904 3.776-16.65l-0.841 0.416zM916.006 626.16c-12.587 0-22.656 9.99-22.656 22.478 0 69.932-40.695 97.821-42.79 99.070-10.492 6.66-13.427 20.397-6.716 30.804 6.716 10.406 20.557 13.32 31.049 6.66 2.517-1.665 63.347-40.793 63.347-136.533 0-12.488-10.069-22.478-22.652-22.478h0.418zM863.983 767.273l-1.677-2.498c5.453-3.33 52.023-36.631 52.023-116.553h2.935c0 84.5-51.605 117.801-53.7 119.050h0.418zM189.792 568.297c6.712 0 12.166 5.411 12.166 12.071 0 55.363 14.264 102.4 42.373 140.28 20.977 27.889 42.373 39.961 42.793 40.377 5.873 3.33 7.971 10.406 4.615 16.234s-10.488 7.909-16.362 4.579c-0.839-0.416-25.592-14.153-49.505-45.789-21.816-29.138-48.246-79.505-48.246-155.681 0-6.66 5.454-12.071 12.166-12.071zM189.801 557.891c-12.586 0-22.655 9.99-22.655 22.478 0 79.089 27.27 131.538 50.344 161.925 26.011 34.133 51.603 48.286 52.861 48.702 5.034 2.914 11.328 3.747 17.201 1.665 5.873-1.665 10.488-5.411 13.425-10.823 5.873-10.823 2.097-24.143-8.81-30.387 0 0-20.138-11.655-39.436-37.463-26.85-35.798-40.275-81.171-40.275-134.036 0-12.488-10.069-22.478-22.655-22.478v0.416zM280.42 772.265c0 0-23.075-12.904-46.149-42.875-20.977-27.889-46.149-76.176-46.149-149.437l1.678-1.665c0 0 1.679 0.832 1.679 1.665 0 57.444 15.103 106.563 44.471 146.524 22.235 29.97 44.89 42.874 46.149 43.291l-1.678 2.498zM107.997 636.563c6.712 0 12.166 5.411 12.166 12.072 0 76.175 45.31 106.563 47.407 107.811 5.454 3.746 7.132 10.822 3.776 16.65-3.776 5.411-10.908 7.076-16.782 3.746-2.517-1.665-58.315-37.879-58.315-127.792 0-6.66 5.454-12.071 12.166-12.071l-0.419-0.416zM107.988 626.159c-12.586 0-22.655 9.99-22.655 22.478 0 95.74 60.832 134.868 63.35 136.533 10.488 6.66 24.333 3.33 31.046-6.66 6.712-10.406 3.356-24.143-6.713-30.803-1.678-1.249-42.793-28.305-42.793-99.070 0-12.488-10.068-22.478-22.655-22.478h0.419zM160.011 767.688c-2.098-1.249-53.701-34.55-53.701-119.051l1.678-1.665c0 0 1.678 0.832 1.678 1.665 0 81.587 49.925 114.888 52.023 116.553l-1.678 2.498z" />
<glyph unicode="&#xe909;" glyph-name="play" d="M296.96 64.004c-24.395 0-51.953 4.634-78.607 19.371-68.668 37.052-79.962 107.366-83.577 130.526-6.776 41.681-6.776 95.578-6.776 157.892v149.474c0 65.684 0 119.579 6.776 161.264 3.614 23.158 14.909 93.474 83.577 130.526s139.595 10.947 163.087 2.526c42.014-15.579 91.708-42.106 149.534-73.263l139.145-74.947c60.988-32.842 111.134-59.789 146.372-85.894 19.426-14.316 79.509-58.526 79.509-132.634 0-74.103-59.631-118.315-79.509-132.629-35.238-26.108-84.932-52.634-142.758-83.789l-139.597-74.948c-60.988-32.841-111.133-59.789-153.147-75.371-14.004-5.052-46.080-16.841-84.48-16.841l0.452-1.263zM296.96 747.794c-12.198 0-23.040-2.526-33.431-8-21.684-11.789-33.431-32.421-39.755-69.895-5.421-35.368-5.421-86.316-5.421-145.261v-149.474c0-62.319 0-113.263 5.421-149.056 5.873-37.052 17.619-58.103 39.303-69.892s46.984-10.948 84.932 2.948c35.689 13.052 83.124 38.737 137.789 68.211l138.692 74.526 26.654-34.526-22.588 36.629c54.66 29.474 101.645 54.737 131.46 77.052 31.625 23.582 45.18 43.371 45.18 66.948s-13.555 43.371-45.18 66.948c-30.268 22.315-77.7 47.999-132.365 77.052l-138.692 74.526c-58.278 31.158-105.261 56.842-141.402 69.894-20.329 7.579-37.044 11.369-51.501 11.369h0.904z" />
<glyph unicode="&#xe90a;" glyph-name="search" d="M866.133 93.867c-16.495-16.495-43.238-16.495-59.733 0l-238.933 238.933c-21.333-17.067-45.867-30.579-73.6-40.533s-57.246-14.933-88.533-14.933c-77.511 0-143.111 26.846-196.8 80.533s-80.533 119.287-80.533 196.8c0 77.511 26.845 143.111 80.533 196.8s119.289 80.533 196.8 80.533c77.513 0 143.113-26.845 196.8-80.533s80.533-119.289 80.533-196.8c0-31.287-4.979-60.8-14.933-88.533s-23.467-52.267-40.533-73.6l238.933-238.933c16.495-16.495 16.495-43.238 0-59.733zM405.333 362.667c53.333 0 98.667 18.667 136 56s56 82.667 56 136c0 53.333-18.667 98.667-56 136s-82.667 56-136 56c-53.333 0-98.667-18.667-136-56s-56-82.667-56-136c0-53.333 18.667-98.667 56-136s82.667-56 136-56z" />
<glyph unicode="&#xe90b;" glyph-name="stop" d="M341.333 789.333c23.564 0 42.667-19.103 42.667-42.667v-597.333c0-23.564-19.103-42.667-42.667-42.667s-42.667 19.103-42.667 42.667v597.333c0 23.564 19.103 42.667 42.667 42.667zM682.667 789.333c23.564 0 42.667-19.103 42.667-42.667v-597.333c0-23.564-19.103-42.667-42.667-42.667s-42.667 19.103-42.667 42.667v597.333c0 23.564 19.103 42.667 42.667 42.667z" />
<glyph unicode="&#xe90c;" d="M512 864c-82.278 0-162.706-24.398-231.117-70.109s-121.731-110.681-153.216-186.695c-31.486-76.013-39.724-159.657-23.673-240.352s55.671-154.82 113.85-213.001c58.179-58.18 132.303-97.801 213-113.852 80.695-16.051 164.339-7.812 240.354 23.676 76.011 31.484 140.983 84.804 186.692 153.216 45.713 68.412 70.11 148.838 70.11 231.117-0.137 110.288-44.011 216.019-121.997 294.004-77.982 77.985-183.714 121.858-294.003 121.996z" />
<glyph unicode="&#xe90d;" d="M706.769 600.128c13.329-13.33 13.329-34.942 0-48.272l-234.667-234.668c-6.4-6.4-15.083-9.997-24.137-9.997s-17.732 3.597-24.135 9.997l-106.667 106.667c-13.33 13.329-13.33 34.944 0 48.273s34.942 13.329 48.272 0l82.53-82.53 210.53 210.53c13.333 13.33 34.944 13.33 48.273 0z" />
<glyph unicode="&#xe90e;" glyph-name="vote" d="M215.767 21.338c-24.13 0-44.787 8.593-61.971 25.775-17.184 17.186-25.775 37.841-25.775 61.973v166.716c0 10.24 1.828 20.476 5.484 30.711 3.656 10.24 9.14 19.379 16.453 27.422l68.003 76.779c8.043 9.506 18.463 14.443 31.26 14.805 12.796 0.367 23.581-3.836 32.356-12.612 8.044-8.043 12.431-17.916 13.162-29.615s-2.925-21.935-10.968-30.711l-60.326-68.002h598.87l-58.133 65.809c-8.043 8.777-11.699 19.012-10.97 30.711 0.734 11.699 5.12 21.572 13.163 29.615 8.777 8.772 19.563 12.979 32.358 12.612s23.215-5.299 31.258-14.805l65.809-74.586c7.313-8.043 12.8-17.182 16.457-27.422 3.652-10.236 5.483-20.471 5.483-30.711v-166.716c0-24.132-8.593-44.787-25.775-61.973-17.186-17.182-37.841-25.775-61.973-25.775h-614.223zM461.457 354.773l-152.46 154.654c-16.818 16.819-25.227 37.658-25.227 62.52s8.409 45.701 25.227 62.519l214.979 214.979c16.819 16.818 37.658 25.227 62.519 25.227s45.7-8.409 62.519-25.227l154.654-152.459c16.815-16.818 25.408-37.475 25.775-61.971 0.363-24.496-7.863-45.153-24.678-61.971l-219.366-219.367c-16.819-16.815-37.474-25.041-61.973-24.678-24.495 0.367-45.15 8.96-61.969 25.775zM742.246 635.563l-155.75 153.556-217.172-217.172 155.75-153.558 217.173 217.174z" />
<glyph unicode="&#xe90f;" glyph-name="star" d="M914.829 470.69c21.623 21.943 29.257 54.153 19.921 84.041-9.314 29.9-33.664 51.282-63.543 55.805l-184.478 27.92c-9.365 1.424-17.455 7.547-21.641 16.38l-82.505 174.138c-13.359 28.184-40.405 45.692-70.583 45.692-30.182 0-57.229-17.508-70.588-45.692 0-0.002-82.502-174.136-82.502-174.136-4.186-8.836-12.278-14.959-21.628-16.379l-184.49-27.921c-29.88-4.524-54.228-25.907-63.54-55.791-9.338-29.905-1.707-62.114 19.912-84.053l133.497-135.556c6.772-6.874 9.862-16.772 8.267-26.47l-31.52-191.407c-5.094-30.989 6.905-61.713 31.313-80.179 24.413-18.475 56.18-20.873 82.907-6.246l165.001 90.364c8.371 4.578 18.368 4.578 26.726 0.004l165.018-90.368c26.726-14.626 58.496-12.228 82.906 6.246 24.41 18.47 36.407 49.19 31.317 80.179l-31.522 191.398c-1.596 9.707 1.493 19.605 8.269 26.483l133.487 135.548zM723.789 299.87l31.526-191.411c1.882-11.465-2.385-22.404-11.422-29.244-5.018-3.793-10.829-5.798-16.811-5.798-2.62 0-7.646 0.346-13.457 3.524l-165.001 90.359c-11.264 6.161-23.923 9.412-36.625 9.412-12.706 0-25.374-3.255-36.625-9.412l-165.016-90.368c-11.335-6.204-22.679-3.447-30.247 2.283-9.040 6.839-13.308 17.775-11.422 29.257l31.519 191.39c4.373 26.62-4.097 53.743-22.652 72.576l-133.49 135.548c-8.010 8.132-10.723 19.584-7.267 30.65 3.455 11.087 12.119 18.687 23.185 20.362l184.483 27.921c25.663 3.899 47.811 20.669 59.278 44.868l82.5 174.131c4.945 10.437 14.575 16.668 25.754 16.668s20.809-6.231 25.754-16.668l82.496-174.129c11.473-24.202 33.626-40.972 59.264-44.868 40.896-6.185 119.228-18.032 184.499-27.922 11.072-1.675 19.733-9.281 23.181-20.344 3.465-11.088 0.747-22.535-7.253-30.659l-133.5-135.556c-18.556-18.833-27.025-45.965-22.652-72.567z" />
<glyph unicode="&#xe910;" glyph-name="plus-outline" d="M511.966 780.791c18.85 0 34.133-15.282 34.133-34.133v-597.333c0-18.85-15.283-34.133-34.133-34.133s-34.133 15.283-34.133 34.133v597.333c0 18.851 15.283 34.133 34.133 34.133zM179.167 447.991c0 18.85 15.282 34.133 34.133 34.133h597.332c18.85 0 34.133-15.283 34.133-34.133s-15.283-34.133-34.133-34.133h-597.332c-18.851 0-34.133 15.283-34.133 34.133z" />
<glyph unicode="&#xe911;" glyph-name="arrow-up" d="M479.33 608.669c13.329 13.329 34.944 13.329 48.273 0l298.667-298.666c13.329-13.329 13.329-34.944 0-48.273s-34.944-13.329-48.273 0l-274.53 274.531-274.531-274.531c-13.33-13.329-34.942-13.329-48.272 0s-13.329 34.944 0 48.273l298.666 298.666z" />
<glyph unicode="&#xe912;" glyph-name="arrow-down" d="M527.607 261.73c-13.329-13.329-34.944-13.329-48.273 0l-298.666 298.668c-13.33 13.33-13.33 34.942 0 48.272s34.942 13.33 48.272 0l274.531-274.531 274.53 274.531c13.329 13.33 34.944 13.33 48.273 0s13.329-34.942 0-48.272l-298.667-298.668z" />
<glyph unicode="&#xe913;" d="M512 864c-82.278 0-162.706-24.398-231.117-70.109s-121.731-110.681-153.216-186.695c-31.486-76.013-39.724-159.657-23.673-240.352s55.671-154.82 113.85-213.001c58.179-58.18 132.303-97.801 213-113.852 80.695-16.051 164.339-7.812 240.354 23.676 76.011 31.484 140.983 84.804 186.692 153.216 45.713 68.412 70.11 148.838 70.11 231.117-0.137 110.288-44.011 216.019-121.997 294.004-77.982 77.985-183.714 121.858-294.003 121.996z" />
<glyph unicode="&#xe914;" d="M560.252 448l112.414 112.372c3.17 3.171 5.687 6.935 7.403 11.078s2.598 8.584 2.598 13.068c0 4.485-0.883 8.925-2.598 13.068s-4.233 7.907-7.403 11.078c-3.17 3.171-6.938 5.687-11.081 7.403s-8.585 2.599-13.069 2.599c-4.484 0-8.922-0.883-13.065-2.599s-7.91-4.232-11.081-7.403l-112.371-112.413-112.372 112.413c-6.404 6.404-15.090 10.002-24.146 10.002s-17.743-3.598-24.147-10.002c-6.404-6.404-10.002-15.090-10.002-24.147s3.598-17.743 10.002-24.146l112.413-112.372-112.413-112.371c-3.171-3.17-5.687-6.938-7.403-11.081s-2.599-8.58-2.599-13.065c0-4.484 0.883-8.926 2.599-13.069s4.232-7.91 7.403-11.081c3.171-3.17 6.935-5.687 11.078-7.403s8.584-2.598 13.068-2.598c4.484 0 8.925 0.883 13.068 2.598s7.907 4.233 11.078 7.403l112.372 112.414 112.371-112.414c3.17-3.17 6.938-5.687 11.081-7.403s8.58-2.598 13.065-2.598c4.484 0 8.926 0.883 13.069 2.598s7.91 4.233 11.081 7.403c3.17 3.17 5.687 6.938 7.403 11.081s2.598 8.585 2.598 13.069c0 4.484-0.883 8.922-2.598 13.065s-4.233 7.91-7.403 11.081l-112.414 112.371z" />
<glyph unicode="&#xe915;" glyph-name="check" d="M890.795 743.821c25.92-25.919 25.92-67.942 0-93.862l-456.294-456.295c-12.447-12.446-29.328-19.439-46.931-19.439s-34.484 6.993-46.931 19.439l-207.407 207.407c-25.919 25.92-25.919 67.942 0 93.862s67.943 25.92 93.862 0l160.477-160.478 409.367 409.365c25.916 25.92 67.942 25.92 93.858 0z" />
<glyph unicode="&#xe916;" glyph-name="alert-circle" d="M511.991 861.875c-228.572 0-413.866-185.294-413.866-413.866s185.294-413.868 413.866-413.868c228.573 0 413.868 185.294 413.868 413.868 0 228.572-185.294 413.866-413.868 413.866zM72.525 448.009c0 242.71 196.756 439.466 439.466 439.466s439.468-196.756 439.468-439.466c0-242.711-196.756-439.468-439.468-439.468-242.71 0-439.466 196.756-439.466 439.468zM512 631.475c7.069 0 12.8-5.731 12.8-12.8v-170.666c0-7.069-5.731-12.8-12.8-12.8s-12.8 5.731-12.8 12.8v170.666c0 7.069 5.731 12.8 12.8 12.8zM499.2 277.325c0 7.069 5.731 12.8 12.8 12.8h0.416c7.069 0 12.8-5.731 12.8-12.8s-5.731-12.8-12.8-12.8h-0.416c-7.069 0-12.8 5.731-12.8 12.8z" />
<glyph unicode="&#xe917;" d="M522.667 864c-84.386 0-166.878-25.024-237.043-71.906s-124.852-113.519-157.145-191.482c-32.294-77.962-40.743-163.752-24.28-246.517s57.099-158.788 116.77-218.462c59.67-59.669 135.695-100.305 218.46-116.766 82.765-16.465 168.555-8.017 246.515 24.277 77.965 32.294 144.602 86.98 191.484 157.146s71.906 152.657 71.906 237.043c-0.141 113.116-45.137 221.558-125.124 301.543-79.983 79.985-188.425 124.983-301.542 125.124z" />
<glyph unicode="&#xe918;" d="M554.138 625.778c0 19.636-18.987 35.555-42.402 35.555-23.42 0-42.402-15.919-42.402-35.555v-177.778c0-19.635 18.982-35.554 42.402-35.554 23.415 0 42.402 15.919 42.402 35.554v177.778zM511.735 305.792c-23.42 0-42.402-19.102-42.402-42.667s18.982-42.667 42.402-42.667h0.529c23.42 0 42.402 19.102 42.402 42.667s-18.982 42.667-42.402 42.667h-0.529z" />
<glyph unicode="&#xe919;" glyph-name="minus-outline" d="M179.167 447.991c0 18.85 15.282 34.133 34.133 34.133h597.332c18.85 0 34.133-15.283 34.133-34.133s-15.283-34.133-34.133-34.133h-597.332c-18.851 0-34.133 15.283-34.133 34.133z" />
</font>
</defs>
</svg>
